즐겨찾기 | 현재접속자 (186) | 최근게시물

총 게시물 594건, 최근 0 건
   

[한글] 6 데이즈 6.Days.2017.BluRay.1080p.x264.AAC.5.1.-.Hon3y

글쓴이 : 익명글쓴이 날짜 : 2017-10-08 (일) 08:48 조회 : 1204
다운로드 : [한글] 6 데이즈 6.Days.2017.BluRay.1080p.x264.AAC.5.1.-.Hon3y (4.7G)
171006 171007 171008 torrent, 홈페이지, 유튜브, 감상


R | Action, Drama, History | 7 September 2017 (New Zealand)


Format                      : Matroska
Format version              : Version 4 / Version 2
File size                   : 2.16 GiB
Duration                    : 1 h 34 min
Overall bit rate            : 3271 kb/s

Video
ID                          : 1
Format                      : AVC
Format/Info                 : Advanced Video Codec
Format profile              : [email protected]
Format settings, CABAC      : Yes
Format settings, RefFrames  : 5 frames
Codec ID                    : V_MPEG4/ISO/AVC
Duration                    : 1 h 34 min
Bit rate                    : 3000 kb/s
Width                       : 1920 pixels
Height                      : 804 pixels
Display aspect ratio        : 2.40:1
Frame rate mode             : Constant
Frame rate                  : 23.976 (24000/1001) FPS

Audio
ID                          : 2
Format                      : AAC
Format/Info                 : Advanced Audio Codec
Format profile              : LC
Codec ID                    : A_AAC
Duration                    : 1 h 34 min
Bit rate                    : 319 kb/s
Channel(s)                  : 6 channels
Channel positions           : Front: L C R, Side: L R, LFE
Sampling rate               : 48.0 kHz

Text #1
ID                          : 3
Format                      : PGS
Muxing mode                 : zlib
Codec ID                    : S_HDMV/PGS
Codec ID/Info               : Picture based subtitle format used on BDs/HD-DVDs
Duration                    : 1 h 1 min
Bit rate                    : 916 b/s
Count of elements           : 50
Stream size                 : 414 KiB (0%)
Language                    : English
Default                     : No
Forced                      : No

Text #2
ID                          : 4
Format                      : PGS
Muxing mode                 : zlib
Codec ID                    : S_HDMV/PGS
Codec ID/Info               : Picture based subtitle format used on BDs/HD-DVDs
Duration                    : 1 h 29 min
Bit rate                    : 2 988 b/s
Count of elements           : 138
Stream size                 : 1.92 MiB (0%)
Language                    : French
Default                     : No
Forced                      : No

Menu
00:00:00.000                : :00:00:00.000
00:05:53.478                : :00:05:53.436
00:11:55.798                : :00:11:55.757
00:17:58.661                : :00:17:58.577
00:24:04.860                : :00:24:04.860
00:30:02.217                : :00:30:02.175
00:36:44.327                : :00:36:44.327
00:41:56.139                : :00:41:56.139
00:48:57.726                : :00:48:57.726
00:54:16.545                : :00:54:16.503
01:00:52.149                : :01:00:52.148
01:06:29.319                : :01:06:29.319
01:12:07.448                : :01:12:07.448
01:17:54.336                : :01:17:54.336
01:24:07.417                : :01:24:07.376
01:30:12.073                : :01:30:12.073


[한글] 6 데이즈 6.Days.2017.BluRay.1080p.x264.AAC.5.1.-.Hon3y
[ 바로감상 ] [ 다운로드 ]

   

총 게시물 594건, 최근 0 건
번호 제목 날짜 조회
594
비밀리에 제작된 위조 지폐 동판을 탈취하려는 내부 조직에 의해 작전 중 아내와 동료들을 잃게 된 특수 …
12-11 440
593
두려움이 너와 함께 하리라평화롭던 부부의 집에 초대받지 않은 손님들이 찾아온다. 낯선 이들의 방문이…
12-08 695
592
영화 터미네이터에서 인류 종말의 원인이 되었던 인공지능 스카이넷과 같은 컨셉으로 만들어진 영화. …
12-08 537
591
긴급 뉴스!“올해 시험을 주관하는 STIC 협회가 부정행위를 발각해 큰 논란이 있었습니다. 몇몇 아시아 …
12-08 506
590
R | Action, Biography, Comedy Size ...... 31.56 GBDuration .. 1 h 54 minVideo ..... 1920x1080p / x264 / 27.5 Mbps / 23.976 fpsAudio ..... E…
12-05 1027
589
정의도 법도 그 누구의 편도 아닌그의 미친 비행이 시작된다뉴욕에서 워싱턴, 워싱턴에서 시카고로.  …
12-05 759
588
킹스맨 본부의 파괴!더 강력해진 범죄조직 골든서클의 등장!철저하게 비밀에 둘러싸인 채 세상을 안전하…
12-05 880
587
인적이 느껴지지 않는 캘리포니아 모하비 사막. 하늘에는 이상하게 붉은 광선이 떠있다.  평범한 가정…
12-02 893
586
토XX아, 보XX고, K동 동시 직공 게시합니다사이트마다 게시글은 조금씩 다를 수 있습니다 (보XX고엔 직샷…
12-01 923
585
Drama, Family 4.36 GB / 9.74 GBJapanese
12-01 639
584
토XX아, 보XX고, K동 동시 직공 게시합니다사이트마다 게시글은 조금씩 다를 수 있습니다 (보XX고엔 직샷…
12-01 613
583
토XX아, 보XX고, K동 동시 직공 게시합니다사이트마다 게시글은 조금씩 다를 수 있습니다 (보XX고엔 직샷…
12-01 800
582
3.26 GB l 5.46 GBComedy, Drama
12-01 535
581
Format                      : MatroskaFormat version              : Version 4 / Version 2File size   …
12-01 454
580
Crime, Drama, History 1.74 GB / 2.74 GB
12-01 452
579
Comedy, Drama 870.59 MB / 1.35 GB
12-01 456
578
12-01 475
577
모든 것이 꼬여만 가는 하루하루들..남편과 헤어진 앨리스는 두 딸과 함께 LA로 이사를 오게 되고 그 곳에…
12-01 499
576
NR | Drama Size ...... 4.37 GBDuration .. 1 h 36 minVideo ..... 1280x536p / x264 / 4978 Kbps / 24.000 fpsAudio ..... German / DTS / 1509 kb…
11-30 555
575
<컨퍼메이션>의 조 리스터 존스의 감독 데뷔작으로써 싸움을 멈출 수 없는 부부가 그들의 결혼을 구…
11-30 608
 1  2  3  4  5  6  7  8  9  10  다음  맨끝