즐겨찾기 | 현재접속자 (98) | 최근게시물

총 게시물 487건, 최근 2 건
   

[영] 이스케이프 플랜:코드 제로 Armed.Response.2017.720p.BluRay.x264-x0r

글쓴이 : 익명글쓴이 날짜 : 2017-10-10 (화) 12:48 조회 : 167
다운로드 : [영] 이스케이프 플랜:코드 제로 Armed.Response.2017.720p.BluRay.x264-x0r (3.8G)
171008 171009 171010 바로보기, 사이트, 유투브, 유튜브


R | Horror, Thriller | 4 August 2017 (video premiere) (USA)        


Format : Matroska
Format version : Version 4 / Version 2
File size : 1.97 GiB
Duration : 1 h 33 min
Overall bit rate : 3005 kb/s
Movie name : Armed.Response.2017.720p.BluRay.x264-x0r
Encoded date : UTC 2017-10-09 20:50:15
Writing application : mkvmerge v7.7.0 (Six Voices) 64bit built on Mar 1 2015 01:50:05
Writing library : libebml v1.3.1 + libmatroska v1.4.2

Video
ID : 1
Format : AVC
Format/Info : Advanced Video Codec
Format profile : [email protected]
Format settings, CABAC : Yes
Format settings, ReFrames : 9 frames
Codec ID : V_MPEG4/ISO/AVC
Duration : 1 h 33 min
Bit rate : 2560 kb/s
Width : 1280 pixels
Height : 720 pixels
Display aspect ratio : 16:9
Frame rate mode : Constant
Frame rate : 23.976 FPS
Color space : YUV
Chroma subsampling : 4:2:0
Bit depth : 8 bits
Scan type : Progressive
Bits/(Pixel*Frame) : 0.116
Stream size : 1.68 GiB (85%)
Writing library : x264 core 130 r2273 b3065e6
Encoding settings : cabac=1 / ref=9 / deblock=1:-3:-3 / analyse=0x3:0x133 / me=umh / subme=10 / psy=1 / psy_rd=1.00:0.25 / mixed_ref=0 / me_range=40 / chroma_me=1 / trellis=2 / 8x8dct=1 / cqm=0 / deadzone=6,6 / fast_pskip=0 / chroma_qp_offset=-4 / threads=12 / lookahead_threads=1 / sliced_threads=0 / nr=0 / decimate=1 / interlaced=0 / bluray_compat=0 / constrained_intra=0 / bframes=4 / b_pyramid=2 / b_adapt=2 / b_bias=0 / direct=3 / weightb=1 / open_gop=0 / weightp=2 / keyint=240 / keyint_min=24 / scenecut=40 / intra_refresh=0 / rc_lookahead=60 / rc=2pass / mbtree=1 / bitrate=2560 / ratetol=1.0 / qcomp=0.00 / qpmin=0 / qpmax=69 / qpstep=4 / cplxblur=20.0 / qblur=0.5 / vbv_maxrate=20000 / vbv_bufsize=25000 / nal_hrd=none / ip_ratio=1.10 / aq=1:1.00
Language : English
Default : Yes
Forced : No
Color range : Limited
Color primaries : BT.709
Transfer characteristics : BT.709
Matrix coefficients : BT.709

Audio
ID : 2
Format : AC-3
Format/Info : Audio Coding 3
Format settings, Endianness : Big
Codec ID : A_AC3
Duration : 1 h 33 min
Bit rate mode : Constant
Bit rate : 448 kb/s
Channel(s) : 6 channels
Channel positions : Front: L C R, Side: L R, LFE
Sampling rate : 48.0 kHz
Frame rate : 31.250 FPS (1536 spf)
Bit depth : 16 bits
Compression mode : Lossy
Stream size : 301 MiB (15%)
Title : Surround
Language : English
Service kind : Complete Main
Default : Yes
Forced : No

Text
ID : 3
Format : UTF-8
Codec ID : S_TEXT/UTF8
Codec ID/Info : UTF-8 Plain Text
Duration : 1 h 28 min
Bit rate : 46 b/s
Count of elements : 1118
Stream size : 30.5 KiB (0%)
Language : English
Default : Yes
Forced : No

Menu
00:00:00.000 : en:Chapter 1
00:07:37.932 : en:Chapter 2
00:12:55.041 : en:Chapter 3
00:17:50.544 : en:Chapter 4
00:23:24.920 : en:Chapter 5
00:30:37.978 : en:Chapter 6
00:34:48.311 : en:Chapter 7
00:41:14.822 : en:Chapter 8
00:45:35.916 : en:Chapter 9
00:51:25.557 : en:Chapter 10
00:56:45.877 : en:Chapter 11
01:02:46.571 : en:Chapter 12
01:10:41.003 : en:Chapter 13
01:16:32.730 : en:Chapter 14
01:21:38.619 : en:Chapter 15
01:29:49.067 : en:Chapter 16


[영] 이스케이프 플랜:코드 제로 Armed.Response.2017.720p.BluRay.x264-x0r
[ 바로감상 ] [ 다운로드 ]

   

총 게시물 487건, 최근 2 건
번호 제목 날짜 조회
487
정재영, 박시후 주연의 영화 <내가 살인범이다>가 일본에서 리메이크 버전으로 제작, 일본 사회의 분…
10-17 77
486
“네가 사라졌으면 좋겠어…”우연히 얻게 된 뮤직박스가7개의 소원을 들어준다는 걸 알게 된 ‘클레어…
10-17 56
485
10-17 87
484
스티븐 킹 작가의 동명의 소설을 원작으로 한 작품입니다.제럴드의 게임은 허쉬, 오큘러스, 썸니아의 …
10-15 177
483
미국, 영국, 프랑스, 독일, 러시아!각국 최고의 스파이가 베를린에 모였다!냉전시대 스파이 전쟁의 주무…
10-14 251
482
불을 켜도, 혼자 보지 않아도 무서운 공포!1994년, 200년 동안 내려온 블레어 위치의 전설을 찾아 3명의 영…
10-13 275
481
정의도 법도 그 누구의 편도 아닌그의 미친 비행이 시작된다뉴욕에서 워싱턴, 워싱턴에서 시카고로.  …
10-13 313
480
 ‘해리 포터’ 마법의 시작!신비한 동물들 탈출, 뉴욕 최대의 위기! 새로운 마법의 시대가 열린다!1926년…
10-12 317
479
대규모 테러를 막기 위한 FBI요원의 목숨을 건 위장수사가 시작된다!FBI 대외테러전담반의 신참 요원 ‘…
10-12 264
478
“상하이의 슬픈 사랑과 음모, 그리고 배신…”1930년대 상하이, 암울한 시기 학생시위를 주도한 지하오…
10-12 243
477
Not Rated | Action, Comedy, Crime | 12 May 2017 (Canada)  Format                      : MatroskaFormat version   …
10-12 220
476
설원에서 발견된 한 소녀의 시체, 진실은 모두 윈드 리버에 묻혔다!발자국마저 사라지는 고요한 설원 위…
10-12 267
475
 어느 날 세상이 뒤집히고 모든 시간 개념이 뒤섞인다?!    도둑질을 하며 살아가는 올리버와 카를로스 …
10-12 198
474
SIZE.......................: 4.36 GBRUNTIME................: 01:29:40VIDEO CODEC........: x264 10bits 6300 KbpsRESOLUTION..........: 1920…
10-12 211
473
기적의 드림팀! 가장 흉한한 미국팀!지금 맞이하는 운명의 LAST TIPOFF!!윈터컵에서 세이린 고등학교가 전국…
10-11 227
472
1980년 5월, 서울 택시운전사. “광주? 돈 워리, 돈 워리! 아이 베스트 드라이버”택시운전사 만섭(송강호)…
10-11 440
471
10-11 291
470
R | Documentary, War | 7 July 2017 (limited) (USA)Format : MatroskaFormat version : Version 4 / Version 2File size : 1.94 GiBDuration : 1 h…
10-11 258
469
R | Comedy, Romance | 30 June 2017 (USA) Format : MatroskaFormat version : Version 4 / Version 2File size : 1.87 GiBDuration : 1 h 29 minOv…
10-11 220
468
부엉이 탈을 쓴 날… 팬더가 내게 찾아왔다!?존재감 제로, 자신감 제로의 평범한 남자사람 ‘로키’.  …
10-11 240
 1  2  3  4  5  6  7  8  9  10  다음  맨끝