즐겨찾기 | 현재접속자 (135) | 최근게시물
총 게시물 1,590건, 최근 13 건
   

[한글] 쉰들러 리스트 Schindlers List 1993 1080p Bluray x265 10Bit AAC 5.1 - GetSchwifty

글쓴이 : 익명글쓴이 날짜 : 2017-09-13 (수) 19:48 조회 : 149
다운로드 : [한글] 쉰들러 리스트 Schindlers List 1993 1080p Bluray x265 10Bit AAC 5.1 - GetSchwifty (4.3G)
170911 170912 170913 바로보기, 토렌트, torrent, 마그넷

Source File:

Schindlers List 1993 1080p FRA BluRay AVC DTS-HD MA 5.1 - NOGROUP 



Media Information:


Code:

General 
Complete name : Schindlers List 1993 1080p Bluray x265 10Bit AAC 5.1 - GetSchwifty.mkv 
Format : Matroska 
Format version : Version 4 / Version 2 
File size : 6.91 GiB 
Duration : 3 h 15 min 
Overall bit rate : 5 071 kb/s 
Movie name : Schindlers List 
Encoded date : UTC 2017-09-12 02:44:04 

Video 
ID : 1 
Format : HEVC 
Format/Info : High Efficiency Video Coding 
Format profile : Main [email protected]@Main 
Codec ID : V_MPEGH/ISO/HEVC 
Duration : 3 h 15 min 
Bit rate : 4 631 kb/s 
Width : 1 920 pixels 
Height : 1 040 pixels 
Display aspect ratio : 1.85:1 
Frame rate mode : Constant 
Frame rate : 23.976 (24000/1001) FPS 
Color space : YUV 
Chroma subsampling : 4:2:0 
Bit depth : 10 bits 
Bits/(Pixel*Frame) : 0.097 
Stream size : 6.31 GiB (91%) 

Audio 
ID : 2 
Format : AAC 
Format/Info : Advanced Audio Codec 
Format profile : LC 
Codec ID : A_AAC 
Duration : 3 h 15 min 
Bit rate : 369 kb/s 
Channel(s) : 6 channels 
Channel positions : Front: L C R, Side: L R, LFE 
Sampling rate : 48.0 kHz 
Frame rate : 46.875 FPS (1024 SPF) 
Compression mode : Lossy 
Delay relative to video : 9 ms 
Stream size : 515 MiB (7%) 
Title : English AAC VBR 5.1 
Language : English 
Default : Yes 
Forced : No 

“왜 나는 더 많은 유태인들을 구해내지 못하였는가?”

1939년 9월 독일군의 폴란드 점령과 함께 오스카 쉰들러는 폴란드의 크레코우로 이주해온다. 기회주의자에 호색한인 쉰들러는 전쟁중 나치와 결탁해 임금을 줄 필요가 없는 유대인을 공장의 인력으로 이용한다. 이때 만난 유대인 회계사 아이작 스턴은 쉰들러의 내면에 숨어 있던 양심을 일깨워준다. 유대인들에 대한 박해가 심해지자 쉰들러는 그들을 강제수용소에서 구해내기로 결심한다. 수용소 장교에게 뇌물을 주고 유대인들을 자신의 고향으로 옮길 계획을 세운 쉰들러는 스턴과 함께 구출할 유대인 명단을 작성한다. 
[한글] 쉰들러 리스트 Schindlers List 1993 1080p Bluray x265 10Bit AAC 5.1 - GetSchwifty
[ 바로감상 ] [ 다운로드 ]

   

총 게시물 1,590건, 최근 13 건
번호 제목 날짜 조회
1590
02:48 17
1589
니나의 언니는 호주에서 태즈매니아를 조사하다 사고로 죽었다. 죽은 언니의 연구기록을 가지고 더 조사…
02:48 12
1588
패컬티 (1998) The Faculty평점 8.0/10 장르|나라스릴러/공포 미국 개봉 | 영화시간/타입/나라1999.05.22 개봉 103분…
02:48 11
1587
         X맨, 슈퍼맨, 배트맨, 스파이더맨이 가지고 있던 모든 능력에 누구도 건드릴 수 없는 독특한…
02:48 20
1586
09-24 32
1585
09-24 24
1584
09-24 23
1583
09-24 21
1582
09-24 24
1581
...
09-24 19
1580
인간과 기계의 대전쟁.. 그를 지키지 않으면 미래 또한 없다!미래, 인류와 기계의 전쟁은 계속 되는 가운…
09-24 20
1579
09-24 19
1578
 The Last Emperor 1987 Criterion in 1080p, encoded with x265 in HEVC and AAC 2.0 English, with subtitle! Encoded using the time consuming…
09-24 19
1577
09-24 37
1576
09-24 31
1575
09-24 30
1574
09-24 32
1573
09-24 29
1572
09-24 44
1571
09-24 41
 1  2  3  4  5  6  7  8  9  10  다음  맨끝