즐겨찾기 | 현재접속자 (110) | 최근게시물
총 게시물 2,586건, 최근 13 건
   

[한글] 쉰들러 리스트 Schindlers List 1993 1080p Bluray x265 10Bit AAC 5.1 - GetSchwifty

글쓴이 : 익명글쓴이 날짜 : 2017-09-13 (수) 19:48 조회 : 424
다운로드 : [한글] 쉰들러 리스트 Schindlers List 1993 1080p Bluray x265 10Bit AAC 5.1 - GetSchwifty (3.7G)
170911 170912 170913 사이트, 유튜브, 무료, magnet

Source File:

Schindlers List 1993 1080p FRA BluRay AVC DTS-HD MA 5.1 - NOGROUP 



Media Information:


Code:

General 
Complete name : Schindlers List 1993 1080p Bluray x265 10Bit AAC 5.1 - GetSchwifty.mkv 
Format : Matroska 
Format version : Version 4 / Version 2 
File size : 6.91 GiB 
Duration : 3 h 15 min 
Overall bit rate : 5 071 kb/s 
Movie name : Schindlers List 
Encoded date : UTC 2017-09-12 02:44:04 

Video 
ID : 1 
Format : HEVC 
Format/Info : High Efficiency Video Coding 
Format profile : Main [email protected]@Main 
Codec ID : V_MPEGH/ISO/HEVC 
Duration : 3 h 15 min 
Bit rate : 4 631 kb/s 
Width : 1 920 pixels 
Height : 1 040 pixels 
Display aspect ratio : 1.85:1 
Frame rate mode : Constant 
Frame rate : 23.976 (24000/1001) FPS 
Color space : YUV 
Chroma subsampling : 4:2:0 
Bit depth : 10 bits 
Bits/(Pixel*Frame) : 0.097 
Stream size : 6.31 GiB (91%) 

Audio 
ID : 2 
Format : AAC 
Format/Info : Advanced Audio Codec 
Format profile : LC 
Codec ID : A_AAC 
Duration : 3 h 15 min 
Bit rate : 369 kb/s 
Channel(s) : 6 channels 
Channel positions : Front: L C R, Side: L R, LFE 
Sampling rate : 48.0 kHz 
Frame rate : 46.875 FPS (1024 SPF) 
Compression mode : Lossy 
Delay relative to video : 9 ms 
Stream size : 515 MiB (7%) 
Title : English AAC VBR 5.1 
Language : English 
Default : Yes 
Forced : No 

“왜 나는 더 많은 유태인들을 구해내지 못하였는가?”

1939년 9월 독일군의 폴란드 점령과 함께 오스카 쉰들러는 폴란드의 크레코우로 이주해온다. 기회주의자에 호색한인 쉰들러는 전쟁중 나치와 결탁해 임금을 줄 필요가 없는 유대인을 공장의 인력으로 이용한다. 이때 만난 유대인 회계사 아이작 스턴은 쉰들러의 내면에 숨어 있던 양심을 일깨워준다. 유대인들에 대한 박해가 심해지자 쉰들러는 그들을 강제수용소에서 구해내기로 결심한다. 수용소 장교에게 뇌물을 주고 유대인들을 자신의 고향으로 옮길 계획을 세운 쉰들러는 스턴과 함께 구출할 유대인 명단을 작성한다. 
[한글] 쉰들러 리스트 Schindlers List 1993 1080p Bluray x265 10Bit AAC 5.1 - GetSchwifty
[ 바로감상 ] [ 다운로드 ]

   

총 게시물 2,586건, 최근 13 건
번호 제목 날짜 조회
2586
PG | Adventure, Biography, Drama (Duration): 3h 12mn(FileSize): 4.05 GiBVideo(Format): AVC - Advanced Video Codec(Format): x264(Resolution)…
07:48 4
2585
R | Drama, Romance(Duration): 2h 31mn(FileSize): 2.91 GiBVideo(Format): AVC - Advanced Video Codec(Format): x264(Resolution): 1280x720p(Asp…
07:48 5
2584
2019년 11월 LA. 400층이나 되는 높이의 건물들로 가득 찬 거리와 끊임없이 번쩍이는 레온등과 광적 행위가 …
01:48 14
2583
줄거리  당신이 기억에서 나를 지워도 처음처럼 사랑할 수 있을까?열렬히 사랑하는 부부 페이지(…
01:48 15
2582
줄거리  그녀들의 아슬아슬한 반란이 세상을 바꾼다!‘헬프[help]’ 는?1. 가정부 혹은 가사 도우미…
01:48 14
2581
제거 대상은 ‘빈 라덴’, 작전명은 ‘제로니모’!인류 역사상 가장 악명 높은 테러리스트를 사살하라!…
01:48 11
2580
줄거리  법도 없다! 희망도 없다! 탈출구도 없다! 평범한 중산층의 가장 포터는 어느날 집에 침입…
11-20 39
2579
줄거리  역사속에 묻혀졌던 파격적인 스캔들이 공개된다!프로이트와 융... 그리고 그녀가 품었던 …
11-20 46
2578
11-20 46
2577
          링의 공포로부터 벗어난 줄만 알았던 레이첼. 하지만 끔찍한 영혼의 저주는 계속되는 죽…
11-20 47
2576
           1974년 11월 14일, 뉴욕시 외곽에 위치한 아미티빌 마을. 온 가족이 처참하게 몰살당한 살…
11-20 46
2575
년대가 불분명한 5월의 어느날 화성인이 지구에 출현한다. 세계 평화와 자유진영의 지도자를 자처하는 …
11-20 8
2574
 타인의 인생 속으로... 거짓은 거짓을 낳고... 점점 깊어가는 거짓의 세계 한 남자가 있다. 그의 이름은 …
11-20 9
2573
NR | Comedy(Duration): 1h 37mn(FileSize): 1.88 GiBVideo(Format): AVC - Advanced Video Codec(Format): x264(Resolution): 1280x720p(AspectRati…
11-20 53
2572
Approved | Western(Duration): 1h 41mn(FileSize): 1.95 GiBVideo(Format): AVC - Advanced Video Codec(Format): x264(Resolution): 1280x720p(Asp…
11-20 47
2571
임페리얼 커피 컴퍼니의 판매사원인 믹 트래비스는 사원교육에서 진심 어린 미소로 좋은 평가를 받는다.…
11-20 81
2570
11-19 102
2569
마피아에게 쫓기는 증인을 지켜야 하는마데아의 엉뚱발랄 가족코미디!월스트리트 투자 은행의 CFO 인 조…
11-19 100
2568
PG | Drama, Mystery, Sci-Fi Size ...... 10.94 GBDuration .. 2 h 29 minVideo ..... 1920x800p / x264 / 9818 kbps / 23.976 fpsAudio ..... Engl…
11-19 104
2567
Approved | Action, Adventure, Crime SIZE ...... 3.27 GBDURATION .. 1 h 22 minVIDEO ..... x264 / 1280x696p / 5065 Kbps / 23.976 fpsAUDIO ...…
11-19 115
 1  2  3  4  5  6  7  8  9  10  다음  맨끝