즐겨찾기 | 현재접속자 (147) | 최근게시물
총 게시물 2,878건, 최근 17 건
   

[한글] 터칭 더 보이드 Touching.the.Void.2003.BluRay.1080p.x264.AAC.5.1.-.Hon3y

글쓴이 : 익명글쓴이 날짜 : 2017-10-12 (목) 21:48 조회 : 582
다운로드 : [한글] 터칭 더 보이드 Touching.the.Void.2003.BluRay.1080p.x264.AAC.5.1.-.Hon3y (1.8G)
171010 171011 171012 유투브, 유튜브, 감상, 무료

 

Format : Matroska 
Format version : Version 4 / Version 2 
File size : 2.47 GiB 
Duration : 1 h 46 min 
Overall bit rate : 3 331 kb/s 
Movie name : Touching the Void 

Video 
ID : 1 
Format : AVC 
Format/Info : Advanced Video Codec 
Format profile : [email protected] 
Format settings, CABAC : Yes 
Format settings, RefFrames : 5 frames 
Codec ID : V_MPEG4/ISO/AVC 
Duration : 1 h 46 min 
Bit rate : 3 000 kb/s 
Width : 1 920 pixels 
Height : 1 080 pixels 
Display aspect ratio : 16:9 
Frame rate mode : Constant 
Frame rate : 23.976 (24000/1001) FPS 

Audio 
ID : 2 
Format : AAC 
Format/Info : Advanced Audio Codec 
Format profile : LC 
Codec ID : A_AAC 
Duration : 1 h 46 min 
Bit rate : 320 kb/s 
Channel(s) : 6 channels 
Channel positions : Front: L C R, Side: L R, LFE 
Sampling rate : 48.0 kHz 
Frame rate : 46.875 FPS (1024 SPF) 
Compression mode : Lossy 
Delay relative to video : -21 ms 
Stream size : 243 MiB (10%) 
Title : Surround 
Language : English 
Default : Yes 
Forced : No 

Text 
ID : 3 
Format : PGS 
Muxing mode : zlib 
Codec ID : S_HDMV/PGS 
Codec ID/Info : Picture based subtitle format used on BDs/HD-DVDs 
Duration : 1 h 42 min 
Bit rate : 39.1 kb/s 
Count of elements : 2348 
Stream size : 28.6 MiB (1%) 
Language : English 
Default : No 
Forced : No 

산악소설로 잘 알려진 영국의 실화소설 <허공 만지기 Touching the Void>를 다큐멘터리로 만든 작품. 
원작소설의 저자이기도 한 산악인 조 심슨이 6300m가 넘는 페루의 시울라 그란데 정상에 도전하는 실화를 다루고 있다.

 
 
 
[한글] 터칭 더 보이드 Touching.the.Void.2003.BluRay.1080p.x264.AAC.5.1.-.Hon3y
[ 바로감상 ] [ 다운로드 ]

   

총 게시물 2,878건, 최근 17 건
번호 제목 날짜 조회
2878
정원은 꽃으로, 집안은 아들로 채워라! | 이상하게 닮은 녀석들 C.R.A.Z.Y.1960년 12월 25일, 독실한 카톨릭 집…
22:48 0
2877
22:48 0
2876
22:48 0
2875
19:48 2
2874
19:48 1
2873
19:48 1
2872
 Hereafter 2010 in 1080p, encoded with x265 in HEVC and AAC 5.1 English, with subtitles! Encoded using the time consuming 2 pass, 10 bit …
03:48 40
2871
 Home Alone 2: Lost in New York 1992 in 1080p, encoded with x265 in HEVC and AAC 5.1 English, with subtitles! Encoded using the time cons…
03:48 46
2870
 Home Alone 1990 in 1080p, encoded with x265 in HEVC and AAC 5.1 English, with subtitles! Encoded using the time consuming 2 pass, 10 bit…
03:48 42
2869
※ 자막 출처 : 일드갤 버스 정류장 JMISOFT 님※ 중문 자체자막마스다 아키히데감독치바 유다이주연타니…
03:48 37
2868
 The Legend of Zorro 2005 in 1080p, encoded with x265 in HEVC and AAC 5.1 English, with subtitles! Encoded using the time consuming 2 pas…
03:48 43
2867
 The Mask of Zorro 1998 in 1080p, encoded with x265 in HEVC and AAC 5.1 English, with subtitles! Encoded using the time consuming 2 pass,…
03:48 12
2866
 Excalibur 1981 30th Anniversary Remastered 1080p Bluray x264 DTS MSubS-Hon3y Format : Matroska Format version : Version 4 / Version 2 …
03:48 12
2865
의화단의 난으로 도처에서 미국인들이 위협을 받게 되자 미국 해병대는 그들을 보호하기 위해 양자강을 …
03:48 12
2864
천재적인 두뇌의 소유자 리드(마일즈 텔러). 저명한 과학자 스톰 박사의 눈에 띄어 과학연구소 백스터에…
03:48 14
2863
{이 이야기는 고발이나 진실이 아니며, 특히 전쟁에 맞섰던 이들의 모험담은 더더욱 아니다. 전쟁에서 빠…
03:48 12
2862
 Stephen Kings It 1990 1080p BRRip x264 DTS ESub-Hon3y Format : Matroska Format version : Version 4 / Version 2 File size : 4.52 GiB D…
03:48 13
2861
12-11 38
2860
12-11 38
2859
12-11 38
 1  2  3  4  5  6  7  8  9  10  다음  맨끝