즐겨찾기 | 현재접속자 (93) | 최근게시물
총 게시물 2,031건, 최근 23 건
   

[한글] 터칭 더 보이드 Touching.the.Void.2003.BluRay.1080p.x264.AAC.5.1.-.Hon3y

글쓴이 : 익명글쓴이 날짜 : 2017-10-12 (목) 21:48 조회 : 58
다운로드 : [한글] 터칭 더 보이드 Touching.the.Void.2003.BluRay.1080p.x264.AAC.5.1.-.Hon3y (5.7G)
171010 171011 171012 주비디오, 유튜브, 감상, 쥬비디오

 

Format : Matroska 
Format version : Version 4 / Version 2 
File size : 2.47 GiB 
Duration : 1 h 46 min 
Overall bit rate : 3 331 kb/s 
Movie name : Touching the Void 

Video 
ID : 1 
Format : AVC 
Format/Info : Advanced Video Codec 
Format profile : [email protected] 
Format settings, CABAC : Yes 
Format settings, RefFrames : 5 frames 
Codec ID : V_MPEG4/ISO/AVC 
Duration : 1 h 46 min 
Bit rate : 3 000 kb/s 
Width : 1 920 pixels 
Height : 1 080 pixels 
Display aspect ratio : 16:9 
Frame rate mode : Constant 
Frame rate : 23.976 (24000/1001) FPS 

Audio 
ID : 2 
Format : AAC 
Format/Info : Advanced Audio Codec 
Format profile : LC 
Codec ID : A_AAC 
Duration : 1 h 46 min 
Bit rate : 320 kb/s 
Channel(s) : 6 channels 
Channel positions : Front: L C R, Side: L R, LFE 
Sampling rate : 48.0 kHz 
Frame rate : 46.875 FPS (1024 SPF) 
Compression mode : Lossy 
Delay relative to video : -21 ms 
Stream size : 243 MiB (10%) 
Title : Surround 
Language : English 
Default : Yes 
Forced : No 

Text 
ID : 3 
Format : PGS 
Muxing mode : zlib 
Codec ID : S_HDMV/PGS 
Codec ID/Info : Picture based subtitle format used on BDs/HD-DVDs 
Duration : 1 h 42 min 
Bit rate : 39.1 kb/s 
Count of elements : 2348 
Stream size : 28.6 MiB (1%) 
Language : English 
Default : No 
Forced : No 

산악소설로 잘 알려진 영국의 실화소설 <허공 만지기 Touching the Void>를 다큐멘터리로 만든 작품. 
원작소설의 저자이기도 한 산악인 조 심슨이 6300m가 넘는 페루의 시울라 그란데 정상에 도전하는 실화를 다루고 있다.

 
 
 
[한글] 터칭 더 보이드 Touching.the.Void.2003.BluRay.1080p.x264.AAC.5.1.-.Hon3y
[ 바로감상 ] [ 다운로드 ]

   

총 게시물 2,031건, 최근 23 건
번호 제목 날짜 조회
2031
18:48 3
2030
          스튜어디스 ‘레나’는 산티아고 비행 스케줄 기간 동안 칠레에 있는 연인 ‘다니엘’과…
18:48 3
2029
18:48 3
2028
1847년의 아메리카. 개척과 야욕의 시대에 일확천금을 꿈꾸는 사람들은 금광을 캐기 위해 서쪽으로 영역…
18:48 3
2027
13:48 7
2026
네명의 갈 곳 없는 문제아들을 입양해서 사랑과 정성으로 키워준 양어머니, 에블린 머서가 슈퍼마켓에서…
13:48 4
2025
 1949년 1월, 국민당은 공산당에게 연패하면서 중국 북방 지역을 빼앗기고 남부 지역까지 점령당할 위기…
04:48 35
2024
실화를 바탕으로 한 전쟁 대서사 블록버스터가 온다!세 연인의 시간을 초월한 애틋한 사랑!1949년 1월 27일…
03:48 37
2023
화창한 어느 날, 수많은 하객들과 친구들의 축복을 받으며 댄(브라이언 디차트)과 스카일러(알렉사 베가)…
03:48 38
2022
하나뿐인 아들을 잃고 요양원에서 노년을 보내는 중국인 어머니에게 아들의 연인인 영국인 남자가 찾아…
03:48 38
2021
인간이 잔인해진 만큼 놈들은 더 영리해졌다! | <새벽의 저주> 이후 1년...어느 날 갑자기 무덤에서 살…
10-17 45
2020
10-17 35
2019
10-17 36
2018
<리메이닝>은 지구 종말에 대한 삶, 사랑, 믿음에 대한 질문을 던지는 초자연적 스릴러 액션 영화다. …
10-17 35
2017
10-17 33
2016
10-17 27
2015
10-17 30
2014
10-17 30
2013
10-17 28
2012
10-17 28
 1  2  3  4  5  6  7  8  9  10  다음  맨끝