즐겨찾기 | 현재접속자 (92) | 최근게시물
총 게시물 2,031건, 최근 23 건
   

[한글] 아스트로 보이 : 아톰의 귀환 Astro Boy 2009 (1080p Bluray x265 HEVC 10bit AAC 5.1 Tigole) [UTR]

글쓴이 : 익명글쓴이 날짜 : 2017-10-13 (금) 01:48 조회 : 138
다운로드 : [한글] 아스트로 보이 : 아톰의 귀환 Astro Boy 2009 (1080p Bluray x265 HEVC 10bit AAC 5.1 Tigole) [UTR] (4.2G)
171011 171012 171013 다운, 실시간, 마그넷, 쥬비디오

 

Astro Boy 2009 in 1080p, encoded with x265 in HEVC and AAC 5.1 English, with subtitle! 
Encoded using the time consuming 2 pass, 10 bit color at 3077 kbps, from a Blu-ray source, for the highest quality possible. 



Media Information

Code:

General 
Format : Matroska 
Format version : Version 4 / Version 2 
File size : 2.33 GiB 
Duration : 1 h 33 min 
Overall bit rate : 3 555 kb/s 
Movie name : Astro Boy 
Encoded date : UTC 2017-09-16 17:47:14 

Video 
ID : 1 
Format : HEVC 
Format/Info : High Efficiency Video Coding 
Format profile : Main [email protected]@Main 
Codec ID : V_MPEGH/ISO/HEVC 
Duration : 1 h 33 min 
Bit rate : 3 077 kb/s 
Width : 1 920 pixels 
Height : 816 pixels 
Display aspect ratio : 2.35:1 
Frame rate mode : Constant 
Frame rate : 23.976 (24000/1001) FPS 
Color space : YUV 
Chroma subsampling : 4:2:0 
Bit depth : 10 bits 
Bits/(Pixel*Frame) : 0.082 
Stream size : 2.02 GiB (87%) 

Audio 
ID : 2 
Format : AAC 
Format/Info : Advanced Audio Codec 
Format profile : LC 
Codec ID : A_AAC 
Duration : 1 h 33 min 
Bit rate : 469 kb/s 
Channel(s) : 6 channels 
Channel positions : Front: L C R, Side: L R, LFE 
Sampling rate : 48.0 kHz 
Frame rate : 46.875 FPS (1024 spf) 
Compression mode : Lossy 
Delay relative to video : 20 ms 
Stream size : 314 MiB (13%) 
Language : English 
Default : Yes 
Forced : No 

Text 
ID : 3 
Format : VobSub 
Muxing mode : zlib 
Codec ID : S_VOBSUB 
Codec ID/Info : Picture based subtitle format used on DVDs 
Duration : 1 h 24 min 
Bit rate : 11.9 kb/s 
Count of elements : 1312 
Stream size : 7.21 MiB (0%) 
Language : English 
Default : No 
Forced : No 

메트로 시티 최고의 과학자, ‘텐마 박사’는 로봇 시험 가동 중 사고로 아들 ‘토비’를 잃는다. 자신의 실수로 아들을 잃고 괴로워하던 ‘텐마 박사’는 ‘토비’의 DNA를 이식해 인간의 감성과 하이 테크놀로지가 결합된 최고의 로봇 ‘아스트로’를 만들어낸다. 하지만 ‘아스트로’의 존재를 알게 된 독재자 ‘스톤 총리’는 ‘아스트로’의 생명 에너지를 차지하기 위해 군대를 동원해 공격을 시작한다. 
 불의의 공격을 받고 메트로 시티 아래로 떨어진 ‘아스트로’. ‘아스트로’는 그 곳에서 값나가는 부품을 얻기 위해 로봇을 사냥하는 ‘코라’ 일행과 친구가 되지만 아이들의 대부, ‘햄에그’의 계략으로 상대를 죽여야만 끝나는 로봇 서바이벌에 나가게 된다. 한편, 대결 중인 ‘아스트로’의 에너지를 감지한 ‘스톤 총리’는 ‘아스트로’를 죽이기 위해 최강의 전투 로봇 ‘피스키퍼’를 가동시키는데……
[한글] 아스트로 보이 : 아톰의 귀환 Astro Boy 2009 (1080p Bluray x265 HEVC 10bit AAC 5.1 Tigole) [UTR]
[ 바로감상 ] [ 다운로드 ]

   

총 게시물 2,031건, 최근 23 건
번호 제목 날짜 조회
2031
18:48 3
2030
          스튜어디스 ‘레나’는 산티아고 비행 스케줄 기간 동안 칠레에 있는 연인 ‘다니엘’과…
18:48 3
2029
18:48 3
2028
1847년의 아메리카. 개척과 야욕의 시대에 일확천금을 꿈꾸는 사람들은 금광을 캐기 위해 서쪽으로 영역…
18:48 3
2027
13:48 7
2026
네명의 갈 곳 없는 문제아들을 입양해서 사랑과 정성으로 키워준 양어머니, 에블린 머서가 슈퍼마켓에서…
13:48 4
2025
 1949년 1월, 국민당은 공산당에게 연패하면서 중국 북방 지역을 빼앗기고 남부 지역까지 점령당할 위기…
04:48 35
2024
실화를 바탕으로 한 전쟁 대서사 블록버스터가 온다!세 연인의 시간을 초월한 애틋한 사랑!1949년 1월 27일…
03:48 37
2023
화창한 어느 날, 수많은 하객들과 친구들의 축복을 받으며 댄(브라이언 디차트)과 스카일러(알렉사 베가)…
03:48 38
2022
하나뿐인 아들을 잃고 요양원에서 노년을 보내는 중국인 어머니에게 아들의 연인인 영국인 남자가 찾아…
03:48 38
2021
인간이 잔인해진 만큼 놈들은 더 영리해졌다! | <새벽의 저주> 이후 1년...어느 날 갑자기 무덤에서 살…
10-17 45
2020
10-17 35
2019
10-17 36
2018
<리메이닝>은 지구 종말에 대한 삶, 사랑, 믿음에 대한 질문을 던지는 초자연적 스릴러 액션 영화다. …
10-17 35
2017
10-17 33
2016
10-17 27
2015
10-17 30
2014
10-17 30
2013
10-17 28
2012
10-17 28
 1  2  3  4  5  6  7  8  9  10  다음  맨끝