즐겨찾기 | 현재접속자 (102) | 최근게시물
총 게시물 2,586건, 최근 13 건
   

[한글] 더 빌런 Ek Villain 2014 Hindi 1080p BluRay x264 DTS 5.1 MSubS - Hon3y

글쓴이 : 익명글쓴이 날짜 : 2017-11-14 (화) 08:48 조회 : 352
다운로드 : [한글] 더 빌런 Ek Villain 2014 Hindi 1080p BluRay x264 DTS 5.1 MSubS - Hon3y (2.8G)
171112 171113 171114 유튜브, 실시간, 무료, 쥬비디오


NR | Action, Crime, Drama

Source                    : BD50
Format                      : Matroska
Format version              : Version 4 / Version 2
File size                   : 4.37 GiB
Duration                    : 2 h 8 min
Overall bit rate            : 4 861 kb/s

Video
ID                          : 1
Format                      : AVC
Format/Info                 : Advanced Video Codec
Format profile              : [email protected]
Format settings, CABAC      : Yes
Format settings, ReFrames   : 5 frames
Codec ID                    : V_MPEG4/ISO/AVC
Duration                    : 2 h 8 min
Bit rate                    : 4 090 kb/s
Width                       : 1 920 pixels
Height                      : 816 pixels
Display aspect ratio        : 2.35:1
Frame rate mode             : Constant
Frame rate                  : 24.000 FPS
Language                    : Hindi
Default                     : Yes
Forced                      : No

Audio
ID                          : 2
Format                      : DTS
Format/Info                 : Digital Theater Systems
Mode                        : 16
Format settings, Endianness : Big
Codec ID                    : A_DTS
Duration                    : 2 h 8 min
Bit rate mode               : Constant
Bit rate                    : 768 kb/s
Channel(s)                  : 6 channels
Channel positions           : Front: L C R, Side: L R, LFE
Sampling rate               : 48.0 kHz
Frame rate                  : 93.750 FPS (512 spf)
Bit depth                   : 24 bits
Compression mode            : Lossy
Stream size                 : 708 MiB (16%)
Language                    : Hindi
Default                     : Yes
Forced                      : No

Text #1
ID                          : 3
Format                      : UTF-8
Codec ID                    : S_TEXT/UTF8
Codec ID/Info               : UTF-8 Plain Text
Duration                    : 2 h 6 min
Bit rate                    : 49 b/s
Count of elements           : 1567
Stream size                 : 45.8 KiB (0%)
Language                    : English
Default                     : Yes
Forced                      : No

[한글] 더 빌런 Ek Villain 2014 Hindi 1080p BluRay x264 DTS 5.1 MSubS - Hon3y
[ 바로감상 ] [ 다운로드 ]

   

총 게시물 2,586건, 최근 13 건
번호 제목 날짜 조회
2586
PG | Adventure, Biography, Drama (Duration): 3h 12mn(FileSize): 4.05 GiBVideo(Format): AVC - Advanced Video Codec(Format): x264(Resolution)…
07:48 12
2585
R | Drama, Romance(Duration): 2h 31mn(FileSize): 2.91 GiBVideo(Format): AVC - Advanced Video Codec(Format): x264(Resolution): 1280x720p(Asp…
07:48 12
2584
2019년 11월 LA. 400층이나 되는 높이의 건물들로 가득 찬 거리와 끊임없이 번쩍이는 레온등과 광적 행위가 …
01:48 21
2583
줄거리  당신이 기억에서 나를 지워도 처음처럼 사랑할 수 있을까?열렬히 사랑하는 부부 페이지(…
01:48 22
2582
줄거리  그녀들의 아슬아슬한 반란이 세상을 바꾼다!‘헬프[help]’ 는?1. 가정부 혹은 가사 도우미…
01:48 21
2581
제거 대상은 ‘빈 라덴’, 작전명은 ‘제로니모’!인류 역사상 가장 악명 높은 테러리스트를 사살하라!…
01:48 12
2580
줄거리  법도 없다! 희망도 없다! 탈출구도 없다! 평범한 중산층의 가장 포터는 어느날 집에 침입…
11-20 40
2579
줄거리  역사속에 묻혀졌던 파격적인 스캔들이 공개된다!프로이트와 융... 그리고 그녀가 품었던 …
11-20 47
2578
11-20 47
2577
          링의 공포로부터 벗어난 줄만 알았던 레이첼. 하지만 끔찍한 영혼의 저주는 계속되는 죽…
11-20 48
2576
           1974년 11월 14일, 뉴욕시 외곽에 위치한 아미티빌 마을. 온 가족이 처참하게 몰살당한 살…
11-20 47
2575
년대가 불분명한 5월의 어느날 화성인이 지구에 출현한다. 세계 평화와 자유진영의 지도자를 자처하는 …
11-20 9
2574
 타인의 인생 속으로... 거짓은 거짓을 낳고... 점점 깊어가는 거짓의 세계 한 남자가 있다. 그의 이름은 …
11-20 10
2573
NR | Comedy(Duration): 1h 37mn(FileSize): 1.88 GiBVideo(Format): AVC - Advanced Video Codec(Format): x264(Resolution): 1280x720p(AspectRati…
11-20 54
2572
Approved | Western(Duration): 1h 41mn(FileSize): 1.95 GiBVideo(Format): AVC - Advanced Video Codec(Format): x264(Resolution): 1280x720p(Asp…
11-20 48
2571
임페리얼 커피 컴퍼니의 판매사원인 믹 트래비스는 사원교육에서 진심 어린 미소로 좋은 평가를 받는다.…
11-20 83
2570
11-19 104
2569
마피아에게 쫓기는 증인을 지켜야 하는마데아의 엉뚱발랄 가족코미디!월스트리트 투자 은행의 CFO 인 조…
11-19 102
2568
PG | Drama, Mystery, Sci-Fi Size ...... 10.94 GBDuration .. 2 h 29 minVideo ..... 1920x800p / x264 / 9818 kbps / 23.976 fpsAudio ..... Engl…
11-19 106
2567
Approved | Action, Adventure, Crime SIZE ...... 3.27 GBDURATION .. 1 h 22 minVIDEO ..... x264 / 1280x696p / 5065 Kbps / 23.976 fpsAUDIO ...…
11-19 117
 1  2  3  4  5  6  7  8  9  10  다음  맨끝